Loading...
 * Dettagli Torrent   globale  | Commenti (0) 


- 99 Homes (2014).BRrip.XviD - Italian.English.Ac3.5.1.sub.ita.eng.iCV-MIRCrew -


Download via torrent:
Categoria bittorrent BDRip
Descrizione
99 Homes (2014).BRrip.XviD - Italian.English.Ac3.5.1.sub.ita.eng.iCV-MIRCrew
[center]


NO FOUND ONLY ORIGINAL RELEASE

My release is always in double track audio italian and Original audio
for select it use VLC or dvd player home
not use wmp

99 Homes (2014)







Riconoscimenti

   2016 - Golden Globe
       Candidatura per il migliore attore non protagonista a Michael Shannon
   2016 - Screen Actors Guild Awards
       Candidatura per il Miglior attore non protagonista a Michael Shannon
   2015 - Independent Spirit Awards
       Candidatura per il miglior attore non protagonista a Michael Shannon
   2015 - Gotham Awards[4]
       Candidatura per il Miglior attore a Michael Shannon


Titolo originale 99 Homes
Lingua originale inglese
Paese di produzione Stati Uniti d'America
Anno 2014
Durata 112 min
Genere drammatico
Regia Ramin Bahrani
Sceneggiatura Ramin Bahrani
Produttore Andrew Garfield, Ashok Amritraj, Ramin Bahrani, Justin Nappi, Kevin Turen
Casa di produzione Noruz Films
Distribuzione (Italia) Lucky Red
Fotografia Bobby Bukowski
Montaggio Alex Camilleri, Emily Chao
Musiche Antony Partos, Matteo Zingales
Scenografia Monique Champagne
Costumi Meghan Kasperlik




   Andrew Garfield: Dennis Nash
   Michael Shannon: Rick Carver
   Laura Dern: Lynn Nash
   Tim Guinee: Frank Greene
   Noah Lomax: Connor Nash
   Clancy Brown: William Freeman
   Cynthia Santiago: Cynthia Greene
   Alex Aristidis: Alex Greene
   Randy Austin: sceriffo Anderon
   Carl Palmer: sceriffo Carl
   Jonathan Vane: Adam Bailey
   Don Brady: sig. Baldwin
   Manu Narayan: Khanna
   Cullen Moss: Bill
   Nadiyah Skyy: Tamika




Johnny Worricker è un agente dell'MI5. Il suo capo nonché miglior amico Benedict Baron muore improvvisamente, e Johnny si ritrova tra le mani un importante documento top-secret contenente informazioni scottanti che riguardano anche il primo ministro inglese.



A recently unemployed single father struggles to get back his foreclosed home by working for the real estate broker who is the source of his frustration.










[spoiler]
General
Complete name                            : 99 Homes (2014).ita.eng.sub.ita.eng.iCV-MIRCrew.avi
Format                                   : AVI
Format/Info                              : Audio Video Interleave
File size                                : 1.89 GiB
Duration                                 : 1h 52mn
Overall bit rate                         : 2 410 Kbps
Movie name                               : www.icv-crew.org
Writing application                      : VirtualDubMod 1.5.10.2 (build 2540/release)
Writing library                          : VirtualDubMod build 2540/release

Video
ID                                       : 0
Format                                   : MPEG-4 Visual
Format profile                           : [email protected]
Format settings, BVOP                    : No
Format settings, QPel                    : No
Format settings, GMC                     : No warppoints
Format settings, Matrix                  : Default (H.263)
Codec ID                                 : XVID
Codec ID/Hint                            : XviD
Duration                                 : 1h 52mn
Bit rate                                 : 1 500 Kbps
Width                                    : 720 pixels
Height                                   : 300 pixels
Display aspect ratio                     : 2.40:1
Frame rate                               : 24.000 fps
Color space                              : YUV
Chroma subsampling                       : 4:2:0
Bit depth                                : 8 bits
Scan type                                : Progressive
Compression mode                         : Lossy
Bits/(Pixel*Frame)                       : 0.289
Stream size                              : 1.17 GiB (62%)
Writing library                          : XviD 64

Audio #1
ID                                       : 1
Format                                   : AC-3
Format/Info                              : Audio Coding 3
Mode extension                           : CM (complete main)
Codec ID                                 : 2000
Duration                                 : 1h 52mn
Bit rate mode                            : Constant
Bit rate                                 : 448 Kbps
Channel(s)                               : 6 channels
Channel positions                        : Front: L C R, Side: L R, LFE
Sampling rate                            : 48.0 KHz
Bit depth                                : 16 bits
Compression mode                         : Lossy
Stream size                              : 359 MiB (19%)
Alignment                                : Split accross interleaves
Interleave, duration                     : 42 ms (1.00 video frame)
Interleave, preload duration             : 500 ms

Audio #2
ID                                       : 2
Format                                   : AC-3
Format/Info                              : Audio Coding 3
Mode extension                           : CM (complete main)
Codec ID                                 : 2000
Duration                                 : 1h 52mn
Bit rate mode                            : Constant
Bit rate                                 : 448 Kbps
Channel(s)                               : 6 channels
Channel positions                        : Front: L C R, Side: L R, LFE
Sampling rate                            : 48.0 KHz
Bit depth                                : 16 bits
Compression mode                         : Lossy
Stream size                              : 359 MiB (19%)
Alignment                                : Split accross interleaves
Interleave, duration                     : 42 ms (1.00 video frame)
Interleave, preload duration             : 500 ms


[/spoiler]

[/center]

Info: Per scaricare devi usare un client come uTorrent o Transmission
AnnounceURL
udp://tracker.leechers-paradise.org:6969/announce
Hash 90627bf8d1503f76f5ea6a78422b3e6f0f836372
Peers seeds: 36 , leech: 5
Size 1.89 GB
Completato 2x
Aggiunto 01.07.16 - 16:07:58
Uploader   robbyrs
Votazione (Voti: 0)


Condividi questo bittorrent:


html/blog:


bbcode/forum:




Aggiungi Commento


counter