Loading...
 * Dettagli Torrent   globale  | Commenti (0) 


- Effie Gray - Storia di uno scandalo (2014).BRrip.XviD - Italian.English.Ac3.5.1.sub.ita.eng.iCV-MIRC -


Download via torrent:
Categoria bittorrent BDRip
Descrizione
Effie Gray - Storia di uno scandalo (2014).BRrip.XviD - Italian.English.Ac3.5.1.sub.ita.eng.iCV-MIRCrew
[center]


NO FOUND ONLY ORIGINAL RELEASE

My release is always in double track audio italian and Original audio
for select it use VLC or dvd player home
not use wmp

Effie Gray - Storia di uno scandalo (2014)







Titolo originale Effie Gray
Lingua originale inglese
Paese di produzione Regno Unito
Anno 2014
Durata 108 min
Genere drammatico, biografico
Regia Richard Laxton
Sceneggiatura Emma Thompson
Produttore Andreas Roald, Donald Rosenfeld
Casa di produzione Sovereign Films




   Dakota Fanning: Euphemia "Effie" Gray
   Emma Thompson: Lady Eastlake
   Greg Wise: John Ruskin
   Tom Sturridge: John Everett Millais
   Robbie Coltrane: Dottore
   Julie Walters: Margaret Cox Ruskin
   Claudia Cardinale: Viscontessa
   David Suchet: John James Ruskin
   Derek Jacobi: Travers Twiss
   James Fox: Sir Charles Eastlake
   Russell Tovey: George
   Riccardo Scamarcio: Raffaele
   Polly Dartford: Sophy Gray




Euphemia, detta "Effie", è la sposa infelice del famoso critico d'arte John Ruskin. Il matrimonio era stato fortemente voluto da entrambe le famiglie per diverse ragioni ma mai consumato. L'uomo infatti non sembra minimamente interessato a lei. Un viaggio in Italia potrebbe aiutare la coppia ma John ......................



Based on the real-life scandal that shocked Victorian-era England, the film tells the story of Euphemia "Effie" Gray. At 19, she married the prominent art historian and critic John Ruskin, but Ruskin refused to consummate their marriage. Lonely and frustrated Effie is drawn to pre-Raphaelite painter John Everett Millais, and finds a friend and champion in Lady Elizabeth Eastlake.............









[spoiler]
General
Complete name                            : Effie Gray storia di uno scandalo (2014).ita.eng-MIRCrew.avi
Format                                   : AVI
Format/Info                              : Audio Video Interleave
File size                                : 1.43 GiB
Duration                                 : 1h 48mn
Overall bit rate                         : 1 887 Kbps
Movie name                               : ENCODED by.www.icv-crew.org
Writing application                      : VirtualDubMod 1.5.10.2 (build 2540/release)
Writing library                          : VirtualDubMod build 2540/release

Video
ID                                       : 0
Format                                   : MPEG-4 Visual
Format profile                           : [email protected]
Format settings, BVOP                    : No
Format settings, QPel                    : No
Format settings, GMC                     : No warppoints
Format settings, Matrix                  : Default (H.263)
Codec ID                                 : XVID
Codec ID/Hint                            : XviD
Duration                                 : 1h 48mn
Bit rate                                 : 977 Kbps
Width                                    : 688 pixels
Height                                   : 286 pixels
Display aspect ratio                     : 2.40:1
Frame rate                               : 24.000 fps
Color space                              : YUV
Chroma subsampling                       : 4:2:0
Bit depth                                : 8 bits
Scan type                                : Progressive
Compression mode                         : Lossy
Bits/(Pixel*Frame)                       : 0.207
Stream size                              : 758 MiB (52%)
Writing library                          : XviD 64

Audio #1
ID                                       : 1
Format                                   : AC-3
Format/Info                              : Audio Coding 3
Mode extension                           : CM (complete main)
Codec ID                                 : 2000
Duration                                 : 1h 48mn
Bit rate mode                            : Constant
Bit rate                                 : 448 Kbps
Channel(s)                               : 6 channels
Channel positions                        : Front: L C R, Side: L R, LFE
Sampling rate                            : 48.0 KHz
Bit depth                                : 16 bits
Compression mode                         : Lossy
Stream size                              : 347 MiB (24%)
Alignment                                : Split accross interleaves
Interleave, duration                     : 42 ms (1.00 video frame)
Interleave, preload duration             : 500 ms

Audio #2
ID                                       : 2
Format                                   : AC-3
Format/Info                              : Audio Coding 3
Mode extension                           : CM (complete main)
Codec ID                                 : 2000
Duration                                 : 1h 48mn
Bit rate mode                            : Constant
Bit rate                                 : 448 Kbps
Channel(s)                               : 6 channels
Channel positions                        : Front: L C R, Side: L R, LFE
Sampling rate                            : 48.0 KHz
Bit depth                                : 16 bits
Compression mode                         : Lossy
Stream size                              : 347 MiB (24%)
Alignment                                : Split accross interleaves
Interleave, duration                     : 42 ms (1.00 video frame)
Interleave, preload duration             : 500 ms


[/spoiler]

[/center]

Info: Per scaricare devi usare un client come uTorrent o Transmission
AnnounceURL
udp://tracker.leechers-paradise.org:6969/announce
Hash ebc97d7789b441f52c431f1bdf864db700353d0c
Peers seeds: 34 , leech: 5
Size 1.43 GB
Completato 893x
Aggiunto 28.06.16 - 15:06:34
Uploader   robbyrs
Votazione (Voti: 0)


Condividi questo bittorrent:


html/blog:


bbcode/forum:




Aggiungi Commento


counter