Loading...
 * Dettagli Torrent   globale  | Commenti (0) 


- L abbiamo fatta grossa (2016).BRrip.XviD - Italian.Ac3.5.1.sub.ita.iCV-MIRCrew -


Download via torrent:
Categoria bittorrent BDRip
Descrizione
L abbiamo fatta grossa (2016).BRrip.XviD - Italian.Ac3.5.1.sub.ita.iCV-MIRCrew

[center]


NO FOUND ONLY ORIGINAL RELEASE

My release is always in double track audio italian and Original audio
for select it use VLC or dvd player home
not use wmp

L'abbiamo fatta grossa (2016)









   DATA USCITA: 28 gennaio 2016
   GENERE: Commedia
   ANNO: 2016
   REGIA: Carlo Verdone
   SCENEGGIATURA: Carlo Verdone, Pasquale Plastino, Massimo Gaudioso
   FOTOGRAFIA: Arnaldo Catinari
   MONTAGGIO: Claudio Di Mauro
   PRODUZIONE: Aurelio De Laurentiis e Luigi De Laurentiis
   DISTRIBUZIONE: Filmauro
   PAESE: Italia
   DURATA: 112 Min



Carlo Verdone, Antonio Albanese, Anna Kasyan, Francesca Fiume, Clotilde Sabatino, Federico Ceci



Antonio Albanese è Yuri Pelagatti, un attore di teatro che, traumatizzato dalla separazione, non riesce più a ricordare le battute in scena. Carlo Verdone è Arturo Merlino, un investigatore squattrinato che vive a casa della vecchia zia vedova. Yuri vuole le prove dell'infedeltà della ex moglie ed assume Arturo credendolo un super investigatore



Yuri Pelagatti (Albanese) wants the evidence of infidelity of his ex-wife and assumes Arturo Merlino (Verdone) believing him a super detective. The two, accidentally, come into possession of a mysterious case filled up with money.











[spoiler]
General
Complete name                            : L'abbiamo fatta grossa (2016).ita.sub.ita.iCV-MIRCrew.avi
Format                                   : AVI
Format/Info                              : Audio Video Interleave
File size                                : 1.54 GiB
Duration                                 : 1h 53mn
Overall bit rate                         : 1 957 Kbps
Movie name                               : www.icv-crew.org
Writing application                      : VirtualDubMod 1.5.10.2 (build 2540/release)
Writing library                          : VirtualDubMod build 2540/release

Video
ID                                       : 0
Format                                   : MPEG-4 Visual
Format profile                           : [email protected]
Format settings, BVOP                    : No
Format settings, QPel                    : No
Format settings, GMC                     : No warppoints
Format settings, Matrix                  : Default (H.263)
Codec ID                                 : XVID
Codec ID/Hint                            : XviD
Duration                                 : 1h 53mn
Bit rate                                 : 1 500 Kbps
Width                                    : 720 pixels
Height                                   : 300 pixels
Display aspect ratio                     : 2.40:1
Frame rate                               : 23.976 fps
Color space                              : YUV
Chroma subsampling                       : 4:2:0
Bit depth                                : 8 bits
Scan type                                : Progressive
Compression mode                         : Lossy
Bits/(Pixel*Frame)                       : 0.290
Stream size                              : 1.18 GiB (77%)
Writing library                          : XviD 64

Audio
ID                                       : 1
Format                                   : AC-3
Format/Info                              : Audio Coding 3
Mode extension                           : CM (complete main)
Codec ID                                 : 2000
Duration                                 : 1h 53mn
Bit rate mode                            : Constant
Bit rate                                 : 448 Kbps
Channel(s)                               : 6 channels
Channel positions                        : Front: L C R, Side: L R, LFE
Sampling rate                            : 48.0 KHz
Bit depth                                : 16 bits
Compression mode                         : Lossy
Stream size                              : 362 MiB (23%)
Alignment                                : Split accross interleaves
Interleave, duration                     : 42 ms (1.00 video frame)
Interleave, preload duration             : 500 ms



[/spoiler]

[/center]

Info: Per scaricare devi usare un client come uTorrent o Transmission
AnnounceURL
udp://tracker.leechers-paradise.org:6969/announce
Hash d0a0fb91383456c21a3c0cc793cfe0d6f73d3bdb
Peers seeds: 222 , leech: 40
Size 1.55 GB
Completato 2890x
Aggiunto 25.06.16 - 12:06:13
Uploader   robbyrs
Votazione (Voti: 1)


Condividi questo bittorrent:


html/blog:


bbcode/forum:




Aggiungi Commento


counter