Loading...
 * Dettagli Torrent   globale  | Commenti (0) 


- Le streghe son tornate (2013).DVDrip.XviD - Italian.Spanish.Ac3.5.1.Sub.ita.iCV-MIRCrew -


Download via torrent:
Categoria bittorrent BDRip
Descrizione
Le streghe son tornate (2013).DVDrip.XviD - Italian.Spanish.Ac3.5.1.Sub.ita.iCV-MIRCrew

by www.icv-crew.org

[center]


NO FOUND ONLY ORIGINAL RELEASE

My release is always in double track audio italian and Original audio
for select it use VLC or dvd player home
not use wmp

Le streghe son tornate - Las brujas de Zugarramurdi (2013)








Titolo originale Las brujas de Zugarramurdi
Lingua originale spagnolo
Paese di produzione Spagna, Francia
Anno 2013
Durata 112 min
Rapporto 2,35 : 1
Genere commedia, orrore
Regia Álex de la Iglesia
Sceneggiatura Álex de la Iglesia, Jorge Guerricaechevarría
Produttore Enrique Cerezo
Casa di produzione Enrique Cerezo Producciones Cinematográficas S.A., La Ferme! Productions, ARTE France Cinéma
Distribuzione (Italia) Officine UBU
Fotografia Kiko de la Rica
Montaggio Pablo Blanco
Effetti speciali Juan Ramón Molina, Ferrán Piquer
Musiche Joan Valent
Scenografia Arturo García (Biaffra), José Luis Arrizabalaga (Arri)
Costumi Francisco Delgado López
Trucco María Dolores Gómez




   Hugo Silva: José
   Mario Casas: Antonio
   Pepón Nieto: Calvo
   Carolina Bang: Eva
   Terele Pávez: Maritxu
   Jaime Ordóñez: Manuel
   Gabriel Delgado: Sergio
   Santiago Segura: Miren
   Macarena Gómez: Silvia
   Secun de la Rosa: Pacheco
   Javier Botet: Luismi
   Enrique Villén: Adolfo
   Carlos Areces: Conchi
   Manuel Tallafé: l'uomo di Badajoz
   María Barranco: donna tracheotomizzata
   Carmen Maura: Graciana

 


José e Antonio, vessati da storie d'amore finite male o mal gestite, organizzano una rapina a mano armata in un negozio "compro oro" nel centro di Madrid. Vestiti come artisti di strada, rispettivamente da Gesù e soldatino giocattolo, compiono la rapina in cui è coinvolto anche il figlioletto di José..........



A gang of escaping jewellery thieves get trapped by a coven of witches. ..........









[spoiler]
General
Complete name                            : Le streghe son tornate - Las brujas de Zugarramurdi (2013).ita.spa.sub.ita.iCV-MIRCrew.avi
Format                                   : AVI
Format/Info                              : Audio Video Interleave
File size                                : 1.71 GiB
Duration                                 : 1h 46mn
Overall bit rate                         : 2 305 Kbps
Writing application                      : VirtualDubMod 1.5.4.1 (build 2178/release)
Writing library                          : VirtualDubMod build 2178/release

Video
ID                                       : 0
Format                                   : MPEG-4 Visual
Format profile                           : Advanced [email protected]
Format settings, BVOP                    : 1
Format settings, QPel                    : No
Format settings, GMC                     : No warppoints
Format settings, Matrix                  : Custom
Codec ID                                 : XVID
Codec ID/Hint                            : XviD
Duration                                 : 1h 46mn
Bit rate                                 : 1 400 Kbps
Width                                    : 720 pixels
Height                                   : 304 pixels
Display aspect ratio                     : 2.35:1
Frame rate                               : 25.000 fps
Color space                              : YUV
Chroma subsampling                       : 4:2:0
Bit depth                                : 8 bits
Scan type                                : Progressive
Compression mode                         : Lossy
Bits/(Pixel*Frame)                       : 0.256
Stream size                              : 1.04 GiB (61%)
Writing library                          : XviD 64

Audio #1
ID                                       : 1
Format                                   : AC-3
Format/Info                              : Audio Coding 3
Mode extension                           : CM (complete main)
Codec ID                                 : 2000
Duration                                 : 1h 46mn
Bit rate mode                            : Constant
Bit rate                                 : 448 Kbps
Channel(s)                               : 6 channels
Channel positions                        : Front: L C R, Side: L R, LFE
Sampling rate                            : 48.0 KHz
Bit depth                                : 16 bits
Compression mode                         : Lossy
Stream size                              : 340 MiB (19%)
Alignment                                : Split accross interleaves
Interleave, duration                     : 96 ms (2.40 video frames)
Interleave, preload duration             : 96 ms
Language                                 : Italian

Audio #2
ID                                       : 2
Format                                   : AC-3
Format/Info                              : Audio Coding 3
Mode extension                           : CM (complete main)
Codec ID                                 : 2000
Duration                                 : 1h 46mn
Bit rate mode                            : Constant
Bit rate                                 : 448 Kbps
Channel(s)                               : 6 channels
Channel positions                        : Front: L C R, Side: L R, LFE
Sampling rate                            : 48.0 KHz
Bit depth                                : 16 bits
Compression mode                         : Lossy
Stream size                              : 340 MiB (19%)
Alignment                                : Split accross interleaves
Interleave, duration                     : 96 ms (2.40 video frames)
Interleave, preload duration             : 96 ms
Language                                 : Spanish




[/spoiler]

[/center]

Info: Per scaricare devi usare un client come uTorrent o Transmission
AnnounceURL
udp://tracker.leechers-paradise.org:6969/announce
Hash 1e15f41c5ee897bbf2b453dce013928de3f5257c
Peers seeds: 55 , leech: 21
Size 1.72 GB
Completato 967x
Aggiunto 21.05.16 - 15:05:05
Uploader   robbyrs
Votazione (Voti: 1)


Condividi questo bittorrent:


html/blog:


bbcode/forum:




Aggiungi Commento


counter