Loading...
 * Dettagli Torrent   globale  | Commenti (0) 


- Fuga dal Natale (2004).BRrip.XviD - Italian.English.Ac3.Sub.ita.eng.iCV-MIRCrew -


Download via torrent:
Categoria bittorrent BDRip
Descrizione
Christmas with the Kranks - Fuga dal Natale (2004).BRrip.XviD - Italian.English.Ac3.Sub.ita.eng.iCV-MIRCrew

by www.icv-crew.org

[center]


NO FOUND ONLY ORIGINAL RELEASE

My release is always in double track audio italian and Original audio
for select it use VLC or dvd player home
not use wmp

Fuga dal Natale - Christmas with the Kranks (2004)








Titolo originale Christmas with the Kranks
Paese di produzione USA
Anno 2004
Durata 98 min
Genere commedia
Regia Joe Roth
Soggetto dal romanzo omonimo di John Grisham
Sceneggiatura Chris Columbus
Produttore Michael Barnathan, Chris Columbus, Mark Radcliffe
Fotografia Don Burgess
Montaggio Nick Moore
Musiche John Debney
Scenografia Garreth Stover
Costumi Susie DeSanto




Tim Allen: Luther Krank
Jamie Lee Curtis: Nora Krank
Dan Aykroyd: Vic Frohmayer
Erik Per Sullivan: Spike Frohmeyer
Julie Gonzalo: Blair Krank
M. Emmet Walsh: Walt Scheel
Elizabeth Franz: Bev Scheel
Cheech Marin: Agente Salino
Jake Busey: Agente Treen
Austin Pendleton: Marty / Babbo Natale con l'ombrello
Tom Poston: Padre Zabriskie
René Lavan: Enrique De Cardena
Caroline Rhea: Candi
Felicity Huffman: Merry
ecc..............
 


Luther Krank, padre di famiglia stanco del solito consumismo del periodo natalizio, decide di "fuggire dal Natale" con una vacanza ai Caraibi, assieme alla moglie Nora, dopo la partenza per il Perù della figlia Blair. Luther e Nora non hanno fatto però i conti con i vicini di quartiere (capitanati da Vic Frohmayer e Walt Scheel) che non si rassegnano a vedere la casa dei Krank senza nemmeno una lucina: per quasi tutto il film la casa dei Krank è tenuta "sotto assedio" dai vicini. ........



Luther Krank is fed up with the commerciality of Christmas; he decides to skip the holiday and go on a vacation with his wife instead. But when his daughter decides at the last minute to come home, he must put together a holiday celebration. ..........








[spoiler]
General
Complete name                            : \Fuga dal Natale - Christmas with the Kranks (2004).ita.eng.sub.ita.eng.iCV-MIRCrew.avi
Format                                   : AVI
Format/Info                              : Audio Video Interleave
File size                                : 1.40 GiB
Duration                                 : 1h 38mn
Overall bit rate                         : 2 028 Kbps
Movie name                               : www.icv-crew.org
Writing application                      : VirtualDubMod 1.5.10.2 (build 2540/release)
Writing library                          : VirtualDubMod build 2540/release

Video
ID                                       : 0
Format                                   : MPEG-4 Visual
Format profile                           : [email protected]
Format settings, BVOP                    : No
Format settings, QPel                    : No
Format settings, GMC                     : No warppoints
Format settings, Matrix                  : Default (H.263)
Codec ID                                 : XVID
Codec ID/Hint                            : XviD
Duration                                 : 1h 38mn
Bit rate                                 : 1 502 Kbps
Width                                    : 688 pixels
Height                                   : 286 pixels
Display aspect ratio                     : 2.40:1
Frame rate                               : 23.976 fps
Color space                              : YUV
Chroma subsampling                       : 4:2:0
Bit depth                                : 8 bits
Scan type                                : Progressive
Compression mode                         : Lossy
Bits/(Pixel*Frame)                       : 0.318
Stream size                              : 1.04 GiB (74%)
Writing library                          : XviD 64

Audio #1
ID                                       : 1
Format                                   : AC-3
Format/Info                              : Audio Coding 3
Mode extension                           : CM (complete main)
Codec ID                                 : 2000
Duration                                 : 1h 38mn
Bit rate mode                            : Constant
Bit rate                                 : 256 Kbps
Channel(s)                               : 2 channels
Channel positions                        : Front: L R
Sampling rate                            : 48.0 KHz
Bit depth                                : 16 bits
Compression mode                         : Lossy
Stream size                              : 181 MiB (13%)
Alignment                                : Split accross interleaves
Interleave, duration                     : 42 ms (1.00 video frame)
Interleave, preload duration             : 500 ms

Audio #2
ID                                       : 2
Format                                   : AC-3
Format/Info                              : Audio Coding 3
Mode extension                           : CM (complete main)
Codec ID                                 : 2000
Duration                                 : 1h 38mn
Bit rate mode                            : Constant
Bit rate                                 : 256 Kbps
Channel(s)                               : 2 channels
Channel positions                        : Front: L R
Sampling rate                            : 48.0 KHz
Bit depth                                : 16 bits
Compression mode                         : Lossy
Stream size                              : 181 MiB (13%)
Alignment                                : Split accross interleaves
Interleave, duration                     : 42 ms (1.00 video frame)
Interleave, preload duration             : 500 ms


[/spoiler]

[/center]

Info: Per scaricare devi usare un client come uTorrent o Transmission
AnnounceURL
udp://tracker.leechers-paradise.org:6969/announce
Hash 0b8735bd95ca48529b1ae1d5b8f958bcf9b8389c
Peers seeds: 19 , leech: 18
Size 1.40 GB
Completato 325x
Aggiunto 18.05.16 - 14:05:26
Uploader   robbyrs
Votazione (Voti: 0)


Condividi questo bittorrent:


html/blog:


bbcode/forum:




Aggiungi Commento


counter