Loading...
 * Dettagli Torrent   globale  | Commenti (0) 


- Scooby Doo - La maledizione del mostro del lago (2010).BRrip.XviD - Italian.English.Ac3.iCV-MIRCrew -


Download via torrent:
Categoria bittorrent BDRip
Descrizione
Scooby-Doo! Curse of the Lake Monster - La maledizione del mostro del lago (2010).BRrip.XviD - Italian.English.Ac3.iCV-MIRCrew

by http://www.icv-crew.org

[center]


NO FOUND ONLY ORIGINAL RELEASE

My release is always in double track audio italian and Original audio
for select it use VLC or dvd player home
not use wmp

Scooby Doo - La maledizione del mostro del lago - Scooby-Doo! Curse of the Lake Monster (2010)










Titolo originale Scooby-Doo! Curse of the Lake Monster
Paese di produzione Canada
Anno 2010
Durata 80 min
Colore colore
Audio sonoro
Genere fantastico, commedia, avventura, giallo
Regia Brian Levant
Sceneggiatura Daniel Altiere, Steven Altiere, Joseph Barbera, William Hanna
Produttore Brian J. Gilbert, Brian Levant
Produttore esecutivo Tom Keniston
Casa di produzione Warner Bros., Cartoon Network
Distribuzione (Italia) Warner Bros., Cartoon Network
Musiche David Newman




   Nick Palatas: Norville "Shaggy" Rogers
   Robbie Amell: Fred Jones
   Kate Melton: Daphne Blake
   Hayley Kiyoko: Velma Dinkley
   Ted McGinley: Thorny Blake

Doppiatori originali

   Frank Welker: Scooby-Doo , Scrappy-Doo

 


Terminati i corsi scolastici al liceo, Velma, Shaggy, Fred e Daphne decidono di trascorrere le loro vacanze estive lavorando nel country club dello zio di Daphne, Thorny. Arrivati sul posto, i ragazzi apprendono che vicino al club c'è un lago da cui ogni tanto emerge un terribile e temibile mostro che, con le sembianze da rana gigante dotata di zanne, spaventa i membri del club e......................................



School is out and the familiar Scooby gang are looking to enjoy a long vacation. However, sightings of a Lake Monster cause them to band together once again to solve yet another mystery........



[





[spoiler]
General
Complete name                            : Scooby Doo - La maledizione del mostro del lago (2010).ita.eng.iCV-MIRCrew.avi
Format                                   : AVI
Format/Info                              : Audio Video Interleave
File size                                : 1.16 GiB
Duration                                 : 1h 22mn
Overall bit rate                         : 2 026 Kbps
Movie name                               : www.icv-crew.org
Writing application                      : VirtualDubMod 1.5.10.2 (build 2540/release)
Writing library                          : VirtualDubMod build 2540/release

Video
ID                                       : 0
Format                                   : MPEG-4 Visual
Format profile                           : [email protected]
Format settings, BVOP                    : No
Format settings, QPel                    : No
Format settings, GMC                     : No warppoints
Format settings, Matrix                  : Default (H.263)
Codec ID                                 : XVID
Codec ID/Hint                            : XviD
Duration                                 : 1h 22mn
Bit rate                                 : 1 500 Kbps
Width                                    : 688 pixels
Height                                   : 386 pixels
Display aspect ratio                     : 16:9
Frame rate                               : 23.976 fps
Color space                              : YUV
Chroma subsampling                       : 4:2:0
Bit depth                                : 8 bits
Scan type                                : Progressive
Compression mode                         : Lossy
Bits/(Pixel*Frame)                       : 0.236
Stream size                              : 882 MiB (74%)
Writing library                          : XviD 64

Audio #1
ID                                       : 1
Format                                   : AC-3
Format/Info                              : Audio Coding 3
Mode extension                           : CM (complete main)
Codec ID                                 : 2000
Duration                                 : 1h 22mn
Bit rate mode                            : Constant
Bit rate                                 : 256 Kbps
Channel(s)                               : 2 channels
Channel positions                        : Front: L R
Sampling rate                            : 48.0 KHz
Bit depth                                : 16 bits
Compression mode                         : Lossy
Stream size                              : 150 MiB (13%)
Alignment                                : Split accross interleaves
Interleave, duration                     : 42 ms (1.00 video frame)
Interleave, preload duration             : 500 ms

Audio #2
ID                                       : 2
Format                                   : AC-3
Format/Info                              : Audio Coding 3
Mode extension                           : CM (complete main)
Codec ID                                 : 2000
Duration                                 : 1h 22mn
Bit rate mode                            : Constant
Bit rate                                 : 256 Kbps
Channel(s)                               : 2 channels
Channel positions                        : Front: L R
Sampling rate                            : 48.0 KHz
Bit depth                                : 16 bits
Compression mode                         : Lossy
Stream size                              : 150 MiB (13%)
Alignment                                : Split accross interleaves
Interleave, duration                     : 42 ms (1.00 video frame)
Interleave, preload duration             : 500 ms



[/spoiler]

[/center]

Info: Per scaricare devi usare un client come uTorrent o Transmission
AnnounceURL
udp://tracker.leechers-paradise.org:6969/announce
Hash c5ff59dd8e7e4e95d34d4119fbe2a51ef5c2c96f
Peers seeds: 52 , leech: 12
Size 1.16 GB
Completato 824x
Aggiunto 25.04.16 - 12:04:20
Uploader   robbyrs
Votazione (Voti: 0)


Condividi questo bittorrent:


html/blog:


bbcode/forum:




Aggiungi Commento


counter