Loading...
 * Dettagli Torrent   globale  | Commenti (0) 


- Alvin Superstar - Nessuno ci può fermare (2015).BRrip.XviD - Italian.English.Ac3.5.1.Sub.ita.eng.iCV -


Download via torrent:
Categoria bittorrent BDRip
Descrizione
Alvin and the Chipmunks: The Road Chip - Nessuno ci può fermare (2015).BRrip.XviD - Italian.English.Ac3.5.1.Sub.ita.eng.iCV-MIRCrew

[center]


NO FOUND ONLY ORIGINAL RELEASE

My release is always in double track audio italian and Original audio
for select it use VLC or dvd player home
not use wmp

Alvin Superstar - Nessuno ci può fermare (2015)









Titolo originale Alvin and the Chipmunks: The Road Chip
Lingua originale Inglese
Paese di produzione Stati Uniti d'America
Anno 2015
Durata 92 min.
Colore colore
Audio sonoro
Rapporto 1,85:1
Genere commedia, fantastico, avventura, animazione, musicale
Regia Walt Becker
Soggetto Ross Bagdasarian (personaggi), Janice Karman (personaggi)
Sceneggiatura Randi Mayem Singer, Adam Sztykiel
Produttore Janice Karman, Ross Bagdasarian
Produttore esecutivo Karen Rosenfelt, Arnon Milchan, John Starke, Steve Waterman
Casa di produzione Fox 2000 Pictures, Regency Enterprises, Bagdasarian Company, TSG Entertainment
Distribuzione (Italia) Twentieth Century Fox
Art director Paul Kelly
Animatori Matthew O'Callaghan
Fotografia Peter Lyons Collister
Montaggio Ryan Folsey
Musiche Mark Mothersbaugh
Scenografia Frank Galline
Costumi Mary Claire Hannan
Trucco Emily Coughlin, Nancy Cummings, Stevie Martin



 Jason Lee: Dave Seville
   Tony Hale: James Suggs
   Kimberly Williams-Paisley: Samantha
   Josh Green: Miles
   Bella Thorne: Ashley Grey
   Eddie Steeples: Barry
   Joshua Mikel: Wyatt
   Laura Marano: Emma la babysitter
   RedFoo: DJ alla festa

 


Alvin, Simon e Theodore credono che Dave sia partito per Miami al fine di chiedere alla fidanzata di sposarsi. Attraverso mille peripezie i tre fratelli hanno solo tre giorni per arrivare a destinazione, così da non perdere Dave ed evitare di acquisire un..........



Through a series of misunderstandings, Alvin, Simon and Theodore come to believe that Dave is going to propose to his new girlfriend in Miami...and dump them. They have three days to get to him and stop the proposal, saving themselves not only from losing Dave but possibly from gaining a terrible stepbrother. ............









[spoiler]
General
Complete name                            : Alvin Superstar - Nessuno ci può fermare (2015).ita.eng.sub.ita.eng.iCV-MIRCrew.avi
Format                                   : AVI
Format/Info                              : Audio Video Interleave
File size                                : 1.55 GiB
Duration                                 : 1h 32mn
Overall bit rate                         : 2 412 Kbps
Movie name                               : www.icv-crew.org
Writing application                      : VirtualDubMod 1.5.10.2 (build 2540/release)
Writing library                          : VirtualDubMod build 2540/release

Video
ID                                       : 0
Format                                   : MPEG-4 Visual
Format profile                           : [email protected]
Format settings, BVOP                    : No
Format settings, QPel                    : No
Format settings, GMC                     : No warppoints
Format settings, Matrix                  : Default (H.263)
Codec ID                                 : XVID
Codec ID/Hint                            : XviD
Duration                                 : 1h 32mn
Bit rate                                 : 1 502 Kbps
Width                                    : 720 pixels
Height                                   : 386 pixels
Display aspect ratio                     : 1.853
Frame rate                               : 23.976 fps
Color space                              : YUV
Chroma subsampling                       : 4:2:0
Bit depth                                : 8 bits
Scan type                                : Progressive
Compression mode                         : Lossy
Bits/(Pixel*Frame)                       : 0.225
Stream size                              : 988 MiB (62%)
Writing library                          : XviD 64

Audio #1
ID                                       : 1
Format                                   : AC-3
Format/Info                              : Audio Coding 3
Mode extension                           : CM (complete main)
Codec ID                                 : 2000
Duration                                 : 1h 32mn
Bit rate mode                            : Constant
Bit rate                                 : 448 Kbps
Channel(s)                               : 6 channels
Channel positions                        : Front: L C R, Side: L R, LFE
Sampling rate                            : 48.0 KHz
Bit depth                                : 16 bits
Compression mode                         : Lossy
Stream size                              : 295 MiB (19%)
Alignment                                : Split accross interleaves
Interleave, duration                     : 42 ms (1.00 video frame)
Interleave, preload duration             : 500 ms

Audio #2
ID                                       : 2
Format                                   : AC-3
Format/Info                              : Audio Coding 3
Mode extension                           : CM (complete main)
Codec ID                                 : 2000
Duration                                 : 1h 32mn
Bit rate mode                            : Constant
Bit rate                                 : 448 Kbps
Channel(s)                               : 6 channels
Channel positions                        : Front: L C R, Side: L R, LFE
Sampling rate                            : 48.0 KHz
Bit depth                                : 16 bits
Compression mode                         : Lossy
Stream size                              : 295 MiB (19%)
Alignment                                : Split accross interleaves
Interleave, duration                     : 42 ms (1.00 video frame)
Interleave, preload duration             : 500 ms


[/spoiler]

[/center]

Info: Per scaricare devi usare un client come uTorrent o Transmission
AnnounceURL
udp://tracker.leechers-paradise.org:6969/announce
Hash 7d30f3fb80ea9d7083d49eead4eac07c97ff16db
Peers seeds: 58 , leech: 34
Size 1.55 GB
Completato 655x
Aggiunto 24.04.16 - 13:04:07
Uploader   robbyrs
Votazione (Voti: 0)


Condividi questo bittorrent:


html/blog:


bbcode/forum:




Aggiungi Commento


counter