* Dettagli Torrent   globale  | Commenti (0) 


- Mr Robot S01e08[BDMux - 720p - H264 - Ita Eng Ac3 - Sub Ita Eng]By GiuseppeTnT - Littlelinx -


Download via torrent:
Categoria bittorrent SerieTv
Descrizione
[center]

MR ROBOT STAGIONE 1
BDMux 720p
Dual Language ITA - ENG
Sub ITA - ENG
For More Releases of GiuseppeTnT and Littlelinx
www.icv-crew.org/




.: Dati Serie :.


Nazione: Stati Uniti d'America
Anno: 2015 -  in produzione
Genere: thriller, drammatico
Stagioni 1
Episodi: 10
Durata: 43 min circa
Lingua: ITA - ENG
Ideatore:Sam Esmail
Cast:
• Rami Malek: Elliot Alderson
• Christian Slater: Mr. Robot
• Carly Chaikin: Darlene
• Portia Doubleday: Angela Moss
• Martin Wallström: Tyrell Wellick
• Grace Gummer: Dominique "Dom" DiPierro
[/center]

Elliot Alderson is a young cyber-security engineer living in New York, who assumes the role of a vigilante hacker by night. Elliot meets a mysterious anarchist known as "Mr. Robot" who recruits Elliot to join his team of hackers, "fsociety". Elliot, who has a social anxiety disorder and connects to people by hacking them, is intrigued but uncertain if he wants to be part of the group. The show follows Mr. Robot's attempts to engage Elliot in his mission to destroy the corporation Elliot is paid to protect. Compelled by his personal beliefs, Elliot struggles to resist the chance to take down the multinational CEOs that are running (and ruining) the world. Written by Soumik Ghosh

Elliot Alderson (Rami Malek) è un giovane informatico che vive e lavora a New York per la Allsafe, un azienda che opera nel settore informatico. Esperto di cyber sicurezza, Elliot nella vita privata è uno stalker telematico con l’ossessione di conoscere i segreti delle persone.

Depresso e affetto da dipendenza da morfina, Elliot non riesce a relazionarsi con la gente che lo circonda e spesso tenta di rifugiarsi in un mondo parallelo con il risultato di apparire paranoico. Un giorno Alderson viene contattato da una misteriosa persona, che si fa chiamare Mr. Robot (Christian Slater), con l’intento di entrare attivamente in un gruppo di ribelli, conosciuti come fsociety, il cui obiettivo è quello di liberare il mondo dall’oppressione delle banche e della finanza.

Per poter far breccia nelle resistenze del giovane informatico, Mr. Robot gli comunica che è intenzione della fsociety mandare in bancarotta la E Corp, società che aveva causato un disastro ambientale nel quale aveva perso la vita il padre di Elliot. L’occasione diventa propizia quando riceve dalla AllSafe il compito di gestire la sicurezza informatica del loro cliente più importante: la E Corp che Alderson ribattezza in Evil Corp (Corporate malvagia).

Mr. Robot è una serie televisiva statunitense del 2015 creata da Sam Esmail. Nel cast troviamo oltre agli attori già citati anche: Carly Chaikin (Darlene), Portia Doubleday (Angela Moss), Martin Wallstrom (Tyrell Wellick), Michael Gill (Gideon Goddard), Aaron Takahashi (Lloyd Chung,) e Sakina Jaffrey (Antara Nayar).


[center].: Screenshot :.





.: Caratteristiche Tecniche :.[/center]
[spoiler]
General
Unique ID                                : 216240012386974346215529720164102225857 (0xA2AE4FBEAA5BBB56F16801CA9AE8BFC1)
Complete name                            : /Mr.Robot.1x01.Ciao.Amico.ITA.ENG.720p.BDMux.x264-Speranzah.mkv
Format                                   : Matroska
Format version                           : Version 4 / Version 2
File size                                : 2.84 GiB
Duration                                 : 1h 2mn
Overall bit rate                         : 6 537 Kbps
Encoded date                             : UTC 2016-03-03 23:24:03
Writing application                      : mkvmerge v7.6.0 ('Garden of Dreams') 64bit built on Feb  8 2015 15:12:28
Writing library                          : libebml v1.3.1 + libmatroska v1.4.2
DURATION                                 : 01:01:40.240000000
NUMBER_OF_FRAMES                         : 955
NUMBER_OF_BYTES                          : 31828
_STATISTICS_WRITING_APP                  : mkvmerge v7.6.0 ('Garden of Dreams') 64bit built on Feb  8 2015 15:12:28
_STATISTICS_WRITING_DATE_UTC             : 2016-03-03 23:24:03
_STATISTICS_TAGS                         : BPS DURATION NUMBER_OF_FRAMES NUMBER_OF_BYTES

Video
ID                                       : 1
Format                                   : AVC
Format/Info                              : Advanced Video Codec
Format profile                           : [email protected]
Format settings, CABAC                   : Yes
Format settings, ReFrames                : 5 frames
Codec ID                                 : V_MPEG4/ISO/AVC
Duration                                 : 1h 2mn
Bit rate                                 : 5 715 Kbps
Width                                    : 1 280 pixels
Height                                   : 720 pixels
Display aspect ratio                     : 16:9
Frame rate                               : 25.000 fps
Original frame rate                      : 23.976 fps
Color space                              : YUV
Chroma subsampling                       : 4:2:0
Bit depth                                : 8 bits
Scan type                                : Progressive
Bits/(Pixel*Frame)                       : 0.248
Stream size                              : 2.54 GiB (89%)
Writing library                          : x264 core 148 r2638 7599210
Encoding settings                        : cabac=1 / ref=5 / deblock=1:0:0 / analyse=0x3:0x133 / me=umh / subme=7 / psy=1 / psy_rd=1.00:0.00 / mixed_ref=1 / me_range=16 / chroma_me=1 / trellis=1 / 8x8dct=1 / cqm=0 / deadzone=21,11 / fast_pskip=0 / chroma_qp_offset=-2 / threads=18 / lookahead_threads=3 / sliced_threads=0 / nr=0 / decimate=1 / interlaced=0 / bluray_compat=0 / constrained_intra=0 / bframes=3 / b_pyramid=2 / b_adapt=1 / b_bias=0 / direct=1 / weightb=1 / open_gop=0 / weightp=2 / keyint=250 / keyint_min=23 / scenecut=40 / intra_refresh=0 / rc_lookahead=40 / rc=2pass / mbtree=1 / bitrate=5715 / ratetol=1.0 / qcomp=0.60 / qpmin=0 / qpmax=69 / qpstep=4 / cplxblur=20.0 / qblur=0.5 / ip_ratio=1.40 / aq=1:1.00
Language                                 : English
Default                                  : Yes
Forced                                   : No
DURATION                                 : 01:02:16.120000000
NUMBER_OF_FRAMES                         : 93403
NUMBER_OF_BYTES                          : 2782994573
_STATISTICS_WRITING_APP                  : mkvmerge v7.6.0 ('Garden of Dreams') 64bit built on Feb  8 2015 15:12:28
_STATISTICS_WRITING_DATE_UTC             : 2016-03-03 23:24:03
_STATISTICS_TAGS                         : BPS DURATION NUMBER_OF_FRAMES NUMBER_OF_BYTES

Audio #1
ID                                       : 2
Format                                   : AC-3
Format/Info                              : Audio Coding 3
Mode extension                           : CM (complete main)
Codec ID                                 : A_AC3
Duration                                 : 1h 2mn
Bit rate mode                            : Constant
Bit rate                                 : 192 Kbps
Channel(s)                               : 2 channels
Channel positions                        : Front: L R
Sampling rate                            : 48.0 KHz
Bit depth                                : 16 bits
Compression mode                         : Lossy
Stream size                              : 85.5 MiB (3%)
Title                                    : ITA
Language                                 : Italian
Default                                  : Yes
Forced                                   : Yes

Audio #2
ID                                       : 3
Format                                   : AC-3
Format/Info                              : Audio Coding 3
Mode extension                           : CM (complete main)
Codec ID                                 : A_AC3
Duration                                 : 1h 2mn
Bit rate mode                            : Constant
Bit rate                                 : 384 Kbps
Channel(s)                               : 6 channels
Channel positions                        : Front: L C R, Side: L R, LFE
Sampling rate                            : 48.0 KHz
Bit depth                                : 16 bits
Compression mode                         : Lossy
Stream size                              : 171 MiB (6%)
Title                                    : ENG
Language                                 : English
Default                                  : No
Forced                                   : No

Text #1
ID                                       : 4
Format                                   : UTF-8
Codec ID                                 : S_TEXT/UTF8
Codec ID/Info                            : UTF-8 Plain Text
Title                                    : ITA - Forced
Language                                 : Italian
Default                                  : Yes
Forced                                   : Yes

Text #2
ID                                       : 5
Format                                   : UTF-8
Codec ID                                 : S_TEXT/UTF8
Codec ID/Info                            : UTF-8 Plain Text
Language                                 : Italian
Default                                  : No
Forced                                   : No

Text #3
ID                                       : 6
Format                                   : UTF-8
Codec ID                                 : S_TEXT/UTF8
Codec ID/Info                            : UTF-8 Plain Text
Language                                 : English
Default                                  : No
Forced                                   : No


[/spoiler]

.: Banda Dedicata :.

700kb/s dalle 00 alle 24


.: Ringraziamenti :.






RESTATE IN SEED ALTRIMENTI

Info: Per scaricare devi usare un client come uTorrent o Transmission
AnnounceURL
udp://tracker.opentrackr.org:1337/announce
Hash 160bc342bcd00805e2a92a55e56554ee0a1e92bc
Peers seeds: 121 , leech: 56
Size 1.88 GB
Completato 1721x
Aggiunto 15.04.16 - 14:04:45
Uploader   ppb1
Votazione (Voti: 0)


Condividi questo bittorrent:


html/blog:


bbcode/forum:




Aggiungi Commento


counter