Loading...
 * Dettagli Torrent   globale  | Commenti (1) 


- The Great Debaters - Il potere della parola (2007).BRrip.XviD - Italian.English.Ac3.5.1.Sub.ita.iCV- -


Download via torrent:
Categoria bittorrent BDRip
Descrizione
The Great Debaters - Il potere della parola (2007).BRrip.XviD - Italian.English.Ac3.5.1.Sub.ita.iCV-MIRCrew

[center]


NO FOUND ONLY ORIGINAL RELEASE

My release is always in double track audio italian and Original audio
for select it use VLC or dvd player home
not use wmp

The Great Debaters - Il potere della parola (2007)








Titolo originale The Great Debaters
Lingua originale Inglese
Paese di produzione USA
Anno 2007
Durata 123 min
Rapporto 2,35 : 1
Genere drammatico
Regia Denzel Washington
Soggetto Robert Eisele, Jeffrey Porro, da un articolo di Tony Scherman
Sceneggiatura Robert Eisele, Jeffrey Porro
Produttore Todd Black, Kate Forte, Oprah Winfrey, Joe Roth, Molly Allen (co-produttrice)
Produttore esecutivo Bob Weinstein, Harvey Weinstein, David Crockett
Casa di produzione Harpo Films, Marshall Production, The Weinstein Company
Fotografia Philippe Rousselot
Montaggio Hughes Winborne, John Breinholt (co-editor)
Effetti speciali Jack Lynch
Musiche James Newton Howard, Peter Golub
Scenografia David J. Bomba
Costumi Sharen Davis
Trucco Carl Fullerton, Matiki Anoff





   Denzel Washington: Melvin B. Tolson
   Forest Whitaker: Dr. James Farmer Sr.
   Nate Parker: Henry Lowe
   Jurnee Smollett: Samantha Booke
   Jermaine Williams: Hamilton Burgess
   Denzel Whitaker: James Farmer Jr.
   Gina Ravera: Ruth Tolson
   John Heard: Sceriffo Dozier
   Kimberly Elise: Pearl Farmer
   Devyn A. Tyler: Helen Farmer
   Trenton McClain Boyd: Nathaniel Farmer

 


Il film è ambientato nel 1935. Il professor Tolson, dopo un'accurata selezione (si parte da 360 studenti per poi sceglierne 45 e arrivare alla fine a soli 4), sceglie i componenti del gruppo dei *debaters*. Sono: Henry Lowe (che lo stesso professore ha salvato qualche giorno prima da un possibile omicidio in una rissa), Samantha Booke (unica, e prima, donna a partecipare all'esperienza),.........



A drama based on the true story of Melvin B. Tolson, a professor at Wiley College Texas. In 1935, he inspired students to form the school's first debate team, which went on to challenge Harvard in the national championship. ...........











[spoiler]
General
Complete name                            : The Great Debaters - Il potere della parola (2007).ita.eng.sub.ita-iCV-MIRCrew.avi
Format                                   : AVI
Format/Info                              : Audio Video Interleave
Format profile                           : OpenDML
File size                                : 2.14 GiB
Duration                                 : 2h 7mn
Overall bit rate                         : 2 412 Kbps
Movie name                               : www.icv-crew.org
Writing application                      : VirtualDubMod 1.5.10.2 (build 2540/release)
Writing library                          : VirtualDubMod build 2540/release

Video
ID                                       : 0
Format                                   : MPEG-4 Visual
Format profile                           : [email protected]
Format settings, BVOP                    : No
Format settings, QPel                    : No
Format settings, GMC                     : No warppoints
Format settings, Matrix                  : Default (H.263)
Codec ID                                 : XVID
Codec ID/Hint                            : XviD
Duration                                 : 2h 7mn
Bit rate                                 : 1 500 Kbps
Width                                    : 720 pixels
Height                                   : 300 pixels
Display aspect ratio                     : 2.40:1
Frame rate                               : 24.000 fps
Color space                              : YUV
Chroma subsampling                       : 4:2:0
Bit depth                                : 8 bits
Scan type                                : Progressive
Compression mode                         : Lossy
Bits/(Pixel*Frame)                       : 0.289
Stream size                              : 1.33 GiB (62%)
Writing library                          : XviD 64

Audio #1
ID                                       : 1
Format                                   : AC-3
Format/Info                              : Audio Coding 3
Mode extension                           : CM (complete main)
Codec ID                                 : 2000
Duration                                 : 2h 6mn
Bit rate mode                            : Constant
Bit rate                                 : 448 Kbps
Channel(s)                               : 6 channels
Channel positions                        : Front: L C R, Side: L R, LFE
Sampling rate                            : 48.0 KHz
Bit depth                                : 16 bits
Compression mode                         : Lossy
Stream size                              : 406 MiB (19%)
Alignment                                : Split accross interleaves
Interleave, duration                     : 42 ms (1.00 video frame)
Interleave, preload duration             : 500 ms

Audio #2
ID                                       : 2
Format                                   : AC-3
Format/Info                              : Audio Coding 3
Mode extension                           : CM (complete main)
Codec ID                                 : 2000
Duration                                 : 2h 6mn
Bit rate mode                            : Constant
Bit rate                                 : 448 Kbps
Channel(s)                               : 6 channels
Channel positions                        : Front: L C R, Side: L R, LFE
Sampling rate                            : 48.0 KHz
Bit depth                                : 16 bits
Compression mode                         : Lossy
Stream size                              : 406 MiB (19%)
Alignment                                : Split accross interleaves
Interleave, duration                     : 42 ms (1.00 video frame)
Interleave, preload duration             : 500 ms



[/spoiler]

[/center]

Info: Per scaricare devi usare un client come uTorrent o Transmission
AnnounceURL
udp://torrent.gresille.org:80/announce
Hash 6e7d3c32797a67cacc4494c989cd5f2591768708
Peers seeds: 55 , leech: 19
Size 2.15 GB
Completato 1122x
Aggiunto 07.04.16 - 14:04:10
Uploader   robbyrs
Votazione (Voti: 0)


Condividi questo bittorrent:


html/blog:


bbcode/forum:




Aggiungi Commento
Ultimi commenti
  
un caloroso grazie a robbyrs per le sue release di ottima qualità e sempre con l'audio originale
20/04 16.36
Tutti commenti (1)


counter