Loading...
 * Dettagli Torrent   globale  | Commenti (1) 


- Rock The Kasbah (2015).BRrip.XviD - Italian.English.Ac3.5.1.Sub.ita.eng.iCV-MIRCrew -


Download via torrent:
Categoria bittorrent BDRip
Descrizione
Rock The Kasbah (2015).BRrip.XviD - Italian.English.Ac3.5.1.Sub.ita.eng.iCV-MIRCrew

[center]


NO FOUND ONLY ORIGINAL RELEASE

My release is always in double track audio italian and Original audio
for select it use VLC or dvd player home
not use wmp



Rock The Kasbah (2015)








Titolo originale Rock the Kasbah
Lingua originale inglese
Paese di produzione Stati Uniti d'America
Anno 2015
Durata 100 min
Genere commedia
Regia Barry Levinson
Sceneggiatura Mitch Glazer
Produttore Steve Bing, Bill Block, Mitch Glazer, Jacob Pechenik, Ethan Smith
Produttore esecutivo Tom Freston, Brian Grazer, Anton Lessine, Sasha Shapiro, Marsha L. Swinton
Casa di produzione Dune Films, QED International, Shangri-La Entertainment, Venture Forth
Distribuzione (Italia) Eagle Pictures
Fotografia Sean Bobbitt
Montaggio Aaron Yanes
Musiche Marcelo Zarvos
Scenografia Niels Sejer
Costumi Deborah Lynn Scott
Trucco Karen Cohen





   Bill Murray: Richie Lanz
   Kate Hudson: Merci
   Zooey Deschanel: Ronnie
   Danny McBride: Nick
   Scott Caan: Jake
   Bruce Willis: Bombay Brian
   Beejan Land: Daoud Sididi
   Leem Lubany: Salima Khan
   Fahim Fazli: Tariq Khan
   Arian Moayed: Riza
   Taylor Kinney: soldato Barnes
   Kelly Lynch: Sylvia


 


Ispirato a una storia vera, il film racconta le disavventure di Richie Vance (Bill Murray), manager musicale caduto in disgrazia, costretto a seguire il suo unico cliente per un tour in Afghanistan. Il manager si ritroverà solo, senza soldi e senza documenti a Kabul. La fortuna comincia a girare nel verso giusto quando inaspettatamente si imbatte nella straordinaria voce di Salima (Leem Lubany), una teenager Pashtun con il sogno di diventare la prima donna a partecipare a Afghan Star,..........



A down-on-his-luck music manager discovers a teenage girl with an extraordinary voice while on a music tour in Afghanistan and takes her to Kabul to compete on the popular television show, Afghan Star. ........











[spoiler]
General
Complete name                            : Rock The Kasbah (2015).ita.eng.sub.ita.eng.iCV-MIRCrew.avi
Format                                   : AVI
Format/Info                              : Audio Video Interleave
File size                                : 1.79 GiB
Duration                                 : 1h 46mn
Overall bit rate                         : 2 412 Kbps
Movie name                               : www.icv-crew.org
Writing application                      : VirtualDubMod 1.5.10.2 (build 2540/release)
Writing library                          : VirtualDubMod build 2540/release

Video
ID                                       : 0
Format                                   : MPEG-4 Visual
Format profile                           : [email protected]
Format settings, BVOP                    : No
Format settings, QPel                    : No
Format settings, GMC                     : No warppoints
Format settings, Matrix                  : Default (H.263)
Codec ID                                 : XVID
Codec ID/Hint                            : XviD
Duration                                 : 1h 46mn
Bit rate                                 : 1 502 Kbps
Width                                    : 720 pixels
Height                                   : 300 pixels
Display aspect ratio                     : 2.40:1
Frame rate                               : 24.000 fps
Color space                              : YUV
Chroma subsampling                       : 4:2:0
Bit depth                                : 8 bits
Scan type                                : Progressive
Compression mode                         : Lossy
Bits/(Pixel*Frame)                       : 0.290
Stream size                              : 1.11 GiB (62%)
Writing library                          : XviD 64

Audio #1
ID                                       : 1
Format                                   : AC-3
Format/Info                              : Audio Coding 3
Mode extension                           : CM (complete main)
Codec ID                                 : 2000
Duration                                 : 1h 46mn
Bit rate mode                            : Constant
Bit rate                                 : 448 Kbps
Channel(s)                               : 6 channels
Channel positions                        : Front: L C R, Side: L R, LFE
Sampling rate                            : 48.0 KHz
Bit depth                                : 16 bits
Compression mode                         : Lossy
Stream size                              : 340 MiB (19%)
Alignment                                : Split accross interleaves
Interleave, duration                     : 42 ms (1.00 video frame)
Interleave, preload duration             : 500 ms

Audio #2
ID                                       : 2
Format                                   : AC-3
Format/Info                              : Audio Coding 3
Mode extension                           : CM (complete main)
Codec ID                                 : 2000
Duration                                 : 1h 46mn
Bit rate mode                            : Constant
Bit rate                                 : 448 Kbps
Channel(s)                               : 6 channels
Channel positions                        : Front: L C R, Side: L R, LFE
Sampling rate                            : 48.0 KHz
Bit depth                                : 16 bits
Compression mode                         : Lossy
Stream size                              : 340 MiB (19%)
Alignment                                : Split accross interleaves
Interleave, duration                     : 42 ms (1.00 video frame)
Interleave, preload duration             : 500 ms



[/spoiler]

[/center]

Info: Per scaricare devi usare un client come uTorrent o Transmission
AnnounceURL
udp://torrent.gresille.org:80/announce
Hash 75142966ced976c1695acff043d62f0f8326874a
Peers seeds: 137 , leech: 50
Size 1.79 GB
Completato 1422x
Aggiunto 04.04.16 - 13:04:22
Uploader   robbyrs
Votazione (Voti: 0)


Condividi questo bittorrent:


html/blog:


bbcode/forum:




Aggiungi Commento
Ultimi commenti
  
ciao tutti,,,grazie mille continua cosi.
grAZIA da newdelhi \\\\\
05/04 14.34
Tutti commenti (1)


counter