* Dettagli Torrent   globale  | Commenti (1) 


- The Green Inferno (2013).BRrip.XviD - Italian English.Ac3.5.1.Sub.ita.eng.MIRCrew -


Download via torrent:
Categoria bittorrent BDRip
Descrizione
The Green Inferno (2013).BRrip.XviD - Italian English.Ac3.5.1.Sub.ita.eng.MIRCrew


[center]



NO FOUND ONLY ORIGINAL RELEASE

My release is always in double track audio italian and Original audio
for select it use VLC or dvd player home
not use wmp


The Green Inferno (2013)




 



Titolo originale The Green Inferno
Lingua originale inglese
Paese di produzione USA
Anno 2013
Durata 103 min
Genere Horror
Regia Eli Roth
Sceneggiatura Eli Roth, Guglielmo Almoedo, Nicolás López
Produttore Eli Roth, Miguel Asensio, Molly Conners, Nicolás López, Christopher Woodrow
Produttore esecutivo Maria Cestone, Sarah E. Johnson, Hoyt David Morgan
Casa di produzione Worldview Entertainment, Dragonfly Entertainment, Sobras.com Producciones
Distribuzione (Italia) Koch Media, Midnight Factory
Montaggio Ernesto Díaz Espinoza
Musiche Manuel Riveiro
Costumi Elisa Hormazábal




   Lorenza Izzo: Justine
   Ariel Levy: Alejandro
   Aaron Burns: Jonah
   Sky Ferreira: Kaycee
   Nicolás Martínez: Daniel
   Kirby Bliss Blanton: Amy
   Daryl Sabara: Lars
   Magda Apanowicz: Samantha
   Matías López: Carlos

 


Un gruppo di studenti ambientalisti lascia New York per raggiungere l'Amazzonia peruviana, in modo da salvare dall'estinzione una tribù locale e bloccare la distruzione di una parte della foresta amazzonica a scopi speculativi, minacciata dall'arrivo delle ruspe e dei fucili dei signori della guerra, pagati dalle grandi multinazionali. Gli attivisti sono pacifici e, col solo uso dei loro telefonini, puntano a smascherare le illegalità in atto, mettendo in streaming le riprese video del disboscamento..............



A group of student activists travels to the Amazon to save the rain forest and soon discover that they are not alone, and that no good deed goes unpunished. ..................









[spoiler]
General
Complete name                            : The Green Inferno (2013).ita.eng.sub.ita.eng-MIRCrewThe Green Inferno (2013).ita.eng.sub.ita.eng-MIRCrew.avi
Format                                   : AVI
Format/Info                              : Audio Video Interleave
File size                                : 1.64 GiB
Duration                                 : 1h 37mn
Overall bit rate                         : 2 411 Kbps
Movie name                               : ENCODED by.WWWilcorsaroverde.org
Writing application                      : VirtualDubMod 1.5.10.2 (build 2540/release)
Writing library                          : VirtualDubMod build 2540/release

Video
ID                                       : 0
Format                                   : MPEG-4 Visual
Format profile                           : [email protected]
Format settings, BVOP                    : No
Format settings, QPel                    : No
Format settings, GMC                     : No warppoints
Format settings, Matrix                  : Default (H.263)
Codec ID                                 : XVID
Codec ID/Hint                            : XviD
Duration                                 : 1h 37mn
Bit rate                                 : 1 501 Kbps
Width                                    : 720 pixels
Height                                   : 300 pixels
Display aspect ratio                     : 2.40:1
Frame rate                               : 23.976 fps
Color space                              : YUV
Chroma subsampling                       : 4:2:0
Bit depth                                : 8 bits
Scan type                                : Progressive
Compression mode                         : Lossy
Bits/(Pixel*Frame)                       : 0.290
Stream size                              : 1.02 GiB (62%)
Writing library                          : XviD 64

Audio #1
ID                                       : 1
Format                                   : AC-3
Format/Info                              : Audio Coding 3
Mode extension                           : CM (complete main)
Codec ID                                 : 2000
Duration                                 : 1h 37mn
Bit rate mode                            : Constant
Bit rate                                 : 448 Kbps
Channel(s)                               : 6 channels
Channel positions                        : Front: L C R, Side: L R, LFE
Sampling rate                            : 48.0 KHz
Bit depth                                : 16 bits
Compression mode                         : Lossy
Stream size                              : 312 MiB (19%)
Alignment                                : Split accross interleaves
Interleave, duration                     : 42 ms (1.00 video frame)
Interleave, preload duration             : 500 ms

Audio #2
ID                                       : 2
Format                                   : AC-3
Format/Info                              : Audio Coding 3
Mode extension                           : CM (complete main)
Codec ID                                 : 2000
Duration                                 : 1h 37mn
Bit rate mode                            : Constant
Bit rate                                 : 448 Kbps
Channel(s)                               : 6 channels
Channel positions                        : Front: L C R, Side: L R, LFE
Sampling rate                            : 48.0 KHz
Bit depth                                : 16 bits
Compression mode                         : Lossy
Stream size                              : 312 MiB (19%)
Alignment                                : Split accross interleaves
Interleave, duration                     : 42 ms (1.00 video frame)
Interleave, preload duration             : 500 ms



[/spoiler]

[/center]

Info: Per scaricare devi usare un client come uTorrent o Transmission
AnnounceURL
udp://torrent.gresille.org:80/announce
Hash 870e2a08e110718045a96c86358862fe94f10f2d
Peers seeds: 20 , leech: 6
Size 1.64 GB
Completato 528x
Aggiunto 01.03.16 - 16:03:34
Uploader   robbyrs
Votazione (Voti: 1)


Condividi questo bittorrent:


html/blog:


bbcode/forum:




Aggiungi Commento
Ultimi commenti
  
Perfetto come sempre grazie!
08/07 00.50
Tutti commenti (1)


counter