Loading...
 * Dettagli Torrent   globale  | Commenti (0) 


- La Promessa (2001).DVDrip.XviD - Italian English.Ac3.5.1.Multisub.MIRCrew -


Download via torrent:
Categoria bittorrent BDRip
Descrizione
The Pledge - La Promessa (2001).DVDrip.XviD - Italian English.Ac3.5.1.Multisub.MIRCrew

ilcorsaroverde.org

[center]



NO FOUND ONLY ORIGINAL RELEASE

La Promessa - The Pledge (2001)



 



Titolo originale The Pledge
Paese di produzione Stati Uniti
Anno 2001
Durata 123 min
Genere drammatico
Regia Sean Penn
Soggetto Friedrich Dürrenmatt
Sceneggiatura Jerzy Kromolowsky, Mary Olson-Kromolovski
Produttore Michael Fitzgerald, Sean Penn, Elie Samaha
Fotografia Chris Menges
Montaggio Jay Cassidy
Musiche Klaus Badelt, Hans Zimmer
Scenografia Bill Groom





   Jack Nicholson: Jerry Black
   Robin Wright Penn: Lori
   Patricia Clarkson: Margaret Larsen
   Aaron Eckhart: Stan Krolak
   Benicio del Toro: Toby Jay Wadenah
   Sam Shepard: Eric Pollack
   Tom Noonan: Gary Jackson
   Mickey Rourke: Jim Olstad
   Harry Dean Stanton: Floyd Cage
   Vanessa Redgrave: Annalise Hansen
   Helen Mirren: Dottoressa
   Dale Dickey: Strom
   Michael O'Keefe: Duane Larsen
   Costas Mandylor: Monash Deputy
   Brittany Tiplady: Becky Fiske
   Lois Smith: Helen Jackson
   Pauline Roberts: Chrissy

 


Jerry Black, poliziotto alle soglie della pensione, si trova di fronte al brutale omicidio di una bambina: sospettando la presenza di un serial killer, inizia le indagini. La polizia arresta un balordo (che si uccide nel commissariato) e chiude il caso, ma Black, che aveva promesso giustizia ai genitori della piccola, crede che l'omicida sia ancora in libertà. Circoscrivendo l'area dove il killer ha operato, inizia una silenziosa caccia all'uomo: si ritira nella zona......



The night he retires as a Nevada sheriff, Jerry Black pledges to the mother of a murdered girl that he will find the killer. Jerry doesn't believe the police arrested the right man; he discovers this is the third incident in the area in the recent past with victims young, blond, pretty, and small for their age. So he buys an old gas station in the mountains near the crimes in order to search for a tall man who drives a black station wagon, gives toy porcupines as gifts, and calls himself the wizard.......












[spoiler]
General
Complete name                            : La Promessa - The Pledge (2001).ita.eng.multisub-MIRCrew.avi
Format                                   : AVI
Format/Info                              : Audio Video Interleave
File size                                : 1.37 GiB
Duration                                 : 1h 58mn
Overall bit rate                         : 1 650 Kbps
Writing application                      : VirtualDubMod 1.5.4.1 (build 2178/release)
Writing library                          : VirtualDubMod build 2178/release

Video
ID                                       : 0
Format                                   : MPEG-4 Visual
Format profile                           : Advanced [email protected]
Format settings, BVOP                    : 1
Format settings, QPel                    : No
Format settings, GMC                     : No warppoints
Format settings, Matrix                  : Custom
Codec ID                                 : XVID
Codec ID/Hint                            : XviD
Duration                                 : 1h 58mn
Bit rate                                 : 873 Kbps
Width                                    : 720 pixels
Height                                   : 304 pixels
Display aspect ratio                     : 2.35:1
Frame rate                               : 25.000 fps
Color space                              : YUV
Chroma subsampling                       : 4:2:0
Bit depth                                : 8 bits
Scan type                                : Progressive
Compression mode                         : Lossy
Bits/(Pixel*Frame)                       : 0.160
Stream size                              : 741 MiB (53%)
Writing library                          : XviD 64

Audio #1
ID                                       : 1
Format                                   : AC-3
Format/Info                              : Audio Coding 3
Mode extension                           : CM (complete main)
Codec ID                                 : 2000
Duration                                 : 1h 58mn
Bit rate mode                            : Constant
Bit rate                                 : 384 Kbps
Channel(s)                               : 6 channels
Channel positions                        : Front: L C R, Side: L R, LFE
Sampling rate                            : 48.0 KHz
Bit depth                                : 16 bits
Compression mode                         : Lossy
Delay relative to video                  : 9ms
Stream size                              : 326 MiB (23%)
Alignment                                : Split accross interleaves
Interleave, duration                     : 96 ms (2.40 video frames)
Interleave, preload duration             : 96 ms
Language                                 : Italian

Audio #2
ID                                       : 2
Format                                   : AC-3
Format/Info                              : Audio Coding 3
Mode extension                           : CM (complete main)
Codec ID                                 : 2000
Duration                                 : 1h 58mn
Bit rate mode                            : Constant
Bit rate                                 : 384 Kbps
Channel(s)                               : 6 channels
Channel positions                        : Front: L C R, Side: L R, LFE
Sampling rate                            : 48.0 KHz
Bit depth                                : 16 bits
Compression mode                         : Lossy
Delay relative to video                  : 9ms
Stream size                              : 326 MiB (23%)
Alignment                                : Split accross interleaves
Interleave, duration                     : 96 ms (2.40 video frames)
Interleave, preload duration             : 96 ms
Language                                 : English


[/spoiler]

[/center]

Info: Per scaricare devi usare un client come uTorrent o Transmission
AnnounceURL
udp://open.demonii.com:1337/announce
Hash 5cf622c692feb0b990c3ea172becbc5fe22db1da
Peers seeds: 54 , leech: 10
Size 1.38 GB
Completato 628x
Aggiunto 01.11.15 - 09:11:11
Uploader   robbyrs
Votazione (Voti: 0)


Condividi questo bittorrent:


html/blog:


bbcode/forum:




Aggiungi Commento


counter