Loading...
 * Dettagli Torrent   globale  | Commenti (0) 


- Insidious 3 L Inizio (2015).BRrip.XviD - Italian English.Ac3.5.1.Sub.ita.MIRCrew -


Download via torrent:
Categoria bittorrent BDRip
Descrizione
Scarica:

Insidious: Chapter 3 - Insidious 3 L Inizio (2015).BRrip.XviD - Italian English.Ac3.5.1.Sub.ita.MIRCrew

www.ilcorsaroverde.org

[center]



NO FOUND ONLY ORIGINAL RELEASE

Insidious 3 L Inizio - Insidious: Chapter 3 (2015)



 



Titolo originale Insidious: Chapter 3
Paese di produzione Stati Uniti d'America, Canada
Anno 2015
Durata 97 min
Rapporto 2,35 : 1
Genere horror, thriller
Regia Leigh Whannell
Soggetto Leigh Whannell
Sceneggiatura Leigh Whannell
Produttore Oren Peli, Jason Blum, James Wan
Produttore esecutivo Steven Schneider, Brian Kavanaugh-Jones, Charles Layton, Jeanette Brill
Casa di produzione Automatik Entertainment, Entertainment One, Blumhouse Productions
Fotografia Brian Pearson
Montaggio Timothy Alverson
Musiche Joseph Bishara
Scenografia Jennifer Spence





   Dermot Mulroney: Sean Brenner
   Stefanie Scott: Quinn Brenner
   Ashton Moio: Hector
   Lin Shaye: Elise Rainier
   Leigh Whannell: Specs
   Angus Sampson: Tucker
   Steve Coulter: Carl
   Ele Keats: Lillith Brenner
   Hayley Kiyoko: Maggie
   Tate Berney: Alex Brenner
   Michael Reid McKay: L'Uomo Che Non Respira
   Phil Abrams: Mel
   Ruben Garfias: Ernesto
   Samantha Ramraj: Sindy
   Joseph Bishara: Demone dalla faccia rossa
   Tom Fitzpatrick: Sposa in Nero / Parker Crane
   Anne Bergstedt Jordanova: Vicina
   Amaris Davidson: Infermiere
   Anna Ross: Adolescente Drogata Morta

 


Un prequel ambientato prima dell'infestazione della famiglia Lambert che rivela come il talento psichico Elise Rainier (Lin Shaye) accetti con riluttanza di usare la sua capacità di contattare i morti per aiutare Quinn Brenner (Stefanie Scott), un'adolescente che è stata presa di mira da una pericolosa entità soprannaturale. La ragazza si reca da Elise nella speranza che quest'ultima l'aiuti a metterla in contatto con la madre, morta di cancro l'anno precedente. All'inizio Elise rifiuta, in quanto, come si verrà a sapere successivamente, ha paura di essere uccisa da un'entità che la tormenta, la quale ha giurato che sarà la causa della sua morte .....



A prequel set before the haunting of the Lambert family that reveals how gifted psychic Elise Rainier reluctantly agrees to use her ability to contact the dead in order to help a teenage girl who has been targeted by a dangerous supernatural entity........












[spoiler]
General
Complete name                            : Insidious 3 L Inizio (2015).ita.eng.sub.ita.eng-MIRCrew.avi
Format                                   : AVI
Format/Info                              : Audio Video Interleave
File size                                : 1.42 GiB
Duration                                 : 1h 37mn
Overall bit rate                         : 2 083 Kbps
Movie name                               : ENCODED for ilcorsaroverde.org
Director                                 : rip by robbyrs MIRCrew
Writing application                      : VirtualDubMod 1.5.10.2 (build 2540/release)
Writing library                          : VirtualDubMod build 2540/release

Video
ID                                       : 0
Format                                   : MPEG-4 Visual
Format profile                           : [email protected]
Format settings, BVOP                    : No
Format settings, QPel                    : No
Format settings, GMC                     : No warppoints
Format settings, Matrix                  : Default (H.263)
Codec ID                                 : XVID
Codec ID/Hint                            : XviD
Duration                                 : 1h 37mn
Bit rate                                 : 1 173 Kbps
Width                                    : 716 pixels
Height                                   : 300 pixels
Display aspect ratio                     : 2.40:1
Frame rate                               : 23.976 fps
Color space                              : YUV
Chroma subsampling                       : 4:2:0
Bit depth                                : 8 bits
Scan type                                : Progressive
Compression mode                         : Lossy
Bits/(Pixel*Frame)                       : 0.228
Stream size                              : 817 MiB (56%)
Writing library                          : XviD 64

Audio #1
ID                                       : 1
Format                                   : AC-3
Format/Info                              : Audio Coding 3
Mode extension                           : CM (complete main)
Codec ID                                 : 2000
Duration                                 : 1h 37mn
Bit rate mode                            : Constant
Bit rate                                 : 448 Kbps
Channel(s)                               : 6 channels
Channel positions                        : Front: L C R, Side: L R, LFE
Sampling rate                            : 48.0 KHz
Bit depth                                : 16 bits
Compression mode                         : Lossy
Stream size                              : 312 MiB (22%)
Alignment                                : Split accross interleaves
Interleave, duration                     : 42 ms (1.00 video frame)
Interleave, preload duration             : 500 ms

Audio #2
ID                                       : 2
Format                                   : AC-3
Format/Info                              : Audio Coding 3
Mode extension                           : CM (complete main)
Codec ID                                 : 2000
Duration                                 : 1h 37mn
Bit rate mode                            : Constant
Bit rate                                 : 448 Kbps
Channel(s)                               : 6 channels
Channel positions                        : Front: L C R, Side: L R, LFE
Sampling rate                            : 48.0 KHz
Bit depth                                : 16 bits
Compression mode                         : Lossy
Stream size                              : 312 MiB (22%)
Alignment                                : Split accross interleaves
Interleave, duration                     : 42 ms (1.00 video frame)
Interleave, preload duration             : 500 ms




[/spoiler]

[/center]

Info: Per scaricare devi usare un client come uTorrent o Transmission
AnnounceURL
udp://open.demonii.com:1337/announce
Hash 4a6717d33f88c7b90113fb9b55d5317d4550f828
Peers seeds: 524 , leech: 248
Size 1.42 GB
Completato 6062x
Aggiunto 23.10.15 - 18:10:35
Uploader   robbyrs
Votazione (Voti: 1)


Condividi questo bittorrent:


html/blog:


bbcode/forum:




Aggiungi Commento


counter