Loading...
 * Dettagli Torrent   globale  | Commenti (0) 


- The Stag - Se Sopravvivo Mi Sposo (2013).DVDrip.XviD - Italian English.Ac3.5.1.Sub.ita.MIRCrew -


Download via torrent:
Categoria bittorrent BDRip
Descrizione
Scarica:

The Stag - Se Sopravvivo Mi Sposo (2013).DVDrip.XviD - Italian English.Ac3.5.1.Sub.ita.MIRCrew

[center]



NO FOUND ONLY ORIGINAL RELEASE

The Stag - Se Sopravvivo Mi Sposo (2013)



 



Titolo originale The Stag
Lingua originale inglese
Paese di produzione Irlanda
Anno 2013
Durata 94 min
Rapporto 1.78 : 1
Genere commedia
Regia John Butler
Sceneggiatura John Butler, Peter McDonald





   Andrew Scott: Davin
   Hugh O'Conor: Fionnan
   Peter McDonald: The Machine
   Brian Gleeson: Simon
   Michael Legge: Kevin
   Andrew Bennett: Big Kevin
   Amy Huberman: Ruth
   Marcella Plunkett: Uli
   Justine Mitchell: Linda
   Amy De Bhrún: Rachel
   Amy Stephenson: Suzanne

 


Fionnan sta per sposarsi e il suo migliore amico Davin decide di organizzare l'addio al celibato (suggerito dalla futura moglie di Fionnan) in montagna, un fine settimana all'irlandese. Peccato che al gruppo, che oltre a Fionnan e Davin include il fratello di Fionnan, Kevin, il compagno di Kevin e l'amico Simon, si unisca il fratello della sposa, soprannominato The Machine: un individuo all'apparenza insopportabile che rischia di rovinare la gita a tutti.....



A bachelor party weekend in the great outdoors takes some unexpected detours..............















[spoiler]
General
Complete name                            : The Stag - Se Sopravvivo Mi Sposo (2013).ita.eng.sub.ita.MIRCrew\The Stag - Se Sopravvivo Mi Sposo (2013).ita.eng.sub.ita.MIRCrew.avi
Format                                   : AVI
Format/Info                              : Audio Video Interleave
File size                                : 1.66 GiB
Duration                                 : 1h 30mn
Overall bit rate                         : 2 627 Kbps
Writing application                      : VirtualDubMod 1.5.4.1 (build 2178/release)
Writing library                          : VirtualDubMod build 2178/release

Video
ID                                       : 0
Format                                   : MPEG-4 Visual
Format profile                           : Advanced [email protected]
Format settings, BVOP                    : 1
Format settings, QPel                    : No
Format settings, GMC                     : No warppoints
Format settings, Matrix                  : Custom
Codec ID                                 : XVID
Codec ID/Hint                            : XviD
Duration                                 : 1h 30mn
Bit rate                                 : 1 722 Kbps
Width                                    : 720 pixels
Height                                   : 384 pixels
Display aspect ratio                     : 1.875
Frame rate                               : 25.000 fps
Color space                              : YUV
Chroma subsampling                       : 4:2:0
Bit depth                                : 8 bits
Scan type                                : Progressive
Compression mode                         : Lossy
Bits/(Pixel*Frame)                       : 0.249
Stream size                              : 1.09 GiB (66%)
Writing library                          : XviD 64

Audio #1
ID                                       : 1
Format                                   : AC-3
Format/Info                              : Audio Coding 3
Mode extension                           : CM (complete main)
Codec ID                                 : 2000
Duration                                 : 1h 30mn
Bit rate mode                            : Constant
Bit rate                                 : 448 Kbps
Channel(s)                               : 6 channels
Channel positions                        : Front: L C R, Side: L R, LFE
Sampling rate                            : 48.0 KHz
Bit depth                                : 16 bits
Compression mode                         : Lossy
Stream size                              : 290 MiB (17%)
Alignment                                : Split accross interleaves
Interleave, duration                     : 96 ms (2.40 video frames)
Interleave, preload duration             : 96 ms
Language                                 : Italian

Audio #2
ID                                       : 2
Format                                   : AC-3
Format/Info                              : Audio Coding 3
Mode extension                           : CM (complete main)
Codec ID                                 : 2000
Duration                                 : 1h 30mn
Bit rate mode                            : Constant
Bit rate                                 : 448 Kbps
Channel(s)                               : 6 channels
Channel positions                        : Front: L C R, Side: L R, LFE
Sampling rate                            : 48.0 KHz
Bit depth                                : 16 bits
Compression mode                         : Lossy
Stream size                              : 290 MiB (17%)
Alignment                                : Split accross interleaves
Interleave, duration                     : 96 ms (2.40 video frames)
Interleave, preload duration             : 96 ms
Language                                 : English



[/spoiler]

[/center]

Info: Per scaricare devi usare un client come uTorrent o Transmission
AnnounceURL
udp://open.demonii.com:1337/announce
Hash c7dafda588db37db9423c01a4558206eccb2e4ab
Peers seeds: 51 , leech: 14
Size 1.66 GB
Completato 138x
Aggiunto 03.10.15 - 13:10:05
Uploader   robbyrs
Votazione (Voti: 0)


Condividi questo bittorrent:


html/blog:


bbcode/forum:




Aggiungi Commento


counter