Loading...
 * Dettagli Torrent   globale  | Commenti (0) 


- Shaun Vita Da Pecora (2015).DVDrip.XviD - Italian English.Ac3 - 5.1.MIRCrew -


Download via torrent:
Categoria bittorrent BDRip
Descrizione
Scarica:

Shaun the Sheep Movie - Shaun Vita Da Pecora (2015).DVDrip.XviD - Italian English.Ac3 - 5.1.MIRCrew

[center]



NO FOUND ONLY ORIGINAL RELEASE

Shaun Vita Da Pecora - Shaun the Sheep Movie (2015)



 



DATA USCITA: 12 febbraio 2015
GENERE: Animazione, Avventura, Family
ANNO: 2015
REGIA: Mark Burton, Richard Starzack
SCENEGGIATURA: Mark Burton, Richard Starzack
PRODUZIONE: Aardman Animations, StudioCanal
DISTRIBUZIONE: Koch Media
PAESE: Francia, Gran Bretagna
DURATA: 85 Minuti




***********************************************************************

 


La vita della fattoria sta iniziando a diventare noiosa. Giorno dopo giorno, il Fattore dice a Shaun quel che deve fare; cos?, Shaun architetta un piano per prendersi un giorno libero: ma si deve stare attenti a quel che si desidera! Insieme al gregge, elabora un'idea geniale: una dopo l'altra, le pecore saltano la staccionata cos? che il Fattore, contandole, si appisoli. Dopodich?, muovendosi silenziosamente, lo portano in una vecchia roulotte parcheggiata in un angolo del campo ricreando tutte le condizioni tipiche della notte. Quando Bitzer le scopre, ormai la frittata ? fatta; cercano quindi di riportare il Fattore fuori dalla roulotte che, a quel punto...............



When Shaun decides to take the day off and have some fun, he gets a little more action than he bargained for. A mix up with the Farmer, a caravan and a very steep hill lead them all to the Big City and it's up to Shaun and the flock to return everyone safely to the green grass of home............












[spoiler]General
Complete name                            : artoni\Shaun Vita Da Pecora (2015).ita.eng.MIRCrew\Shaun Vita Da Pecora (2015).ita.eng.MIRCrew.avi
Format                                   : AVI
Format/Info                              : Audio Video Interleave
File size                                : 1.46 GiB
Duration                                 : 1h 21mn
Overall bit rate                         : 2 550 Kbps
Writing application                      : VirtualDubMod 1.5.4.1 (build 2178/release)
Writing library                          : VirtualDubMod build 2178/release

Video
ID                                       : 0
Format                                   : MPEG-4 Visual
Format profile                           : Advanced [email protected]
Format settings, BVOP                    : 1
Format settings, QPel                    : No
Format settings, GMC                     : No warppoints
Format settings, Matrix                  : Custom
Codec ID                                 : XVID
Codec ID/Hint                            : XviD
Duration                                 : 1h 21mn
Bit rate                                 : 1 402 Kbps
Width                                    : 720 pixels
Height                                   : 384 pixels
Display aspect ratio                     : 1.875
Frame rate                               : 25.000 fps
Color space                              : YUV
Chroma subsampling                       : 4:2:0
Bit depth                                : 8 bits
Scan type                                : Progressive
Compression mode                         : Lossy
Bits/(Pixel*Frame)                       : 0.203
Stream size                              : 821 MiB (55%)
Writing library                          : XviD 64

Audio #1
ID                                       : 1
Format                                   : AC-3
Format/Info                              : Audio Coding 3
Mode extension                           : CM (complete main)
Codec ID                                 : 2000
Duration                                 : 1h 21mn
Bit rate mode                            : Constant
Bit rate                                 : 384 Kbps
Channel(s)                               : 6 channels
Channel positions                        : Front: L C R, Side: L R, LFE
Sampling rate                            : 48.0 KHz
Bit depth                                : 16 bits
Compression mode                         : Lossy
Stream size                              : 225 MiB (15%)
Alignment                                : Split accross interleaves
Interleave, duration                     : 96 ms (2.40 video frames)
Interleave, preload duration             : 96 ms

Audio #2
ID                                       : 2
Format                                   : DTS
Format/Info                              : Digital Theater Systems
Codec ID                                 : 2001
Codec ID/Info                            : Digital Theater Systems
Duration                                 : 1h 21mn
Bit rate mode                            : Constant
Bit rate                                 : 755 Kbps
Channel(s)                               : 6 channels
Channel positions                        : Front: L C R, Side: L R, LFE
Sampling rate                            : 48.0 KHz
Bit depth                                : 24 bits
Compression mode                         : Lossy
Stream size                              : 442 MiB (30%)
Alignment                                : Split accross interleaves
Interleave, duration                     : 96 ms (2.40 video frames)
Interleave, preload duration             : 96 ms[/spoiler]


[/center]
Info: Per scaricare devi usare un client come uTorrent o Transmission
AnnounceURL
udp://open.demonii.com:1337/announce
Hash 4596559944775376d5c28e5b7043909229fe9d54
Peers seeds: 107 , leech: 10
Size 1.46 GB
Completato 541x
Aggiunto 21.08.15 - 12:08:11
Uploader   robbyrs
Votazione (Voti: 2)


Condividi questo bittorrent:


html/blog:


bbcode/forum:




Aggiungi Commento


counter